Info

Afflicted


6.3
IMDB: 6.3/10 17,044 votes

Durata: 85 min

Released:

Anno: 27 Jan 2015

Direttore:

Premi: 5 wins & 11 nominations.

Budget: 318000$

Incassi: 121179$

Stato: Released

Paese: Canada, USA

Cast:




Gli inseparabili migliori amici Derek Lee e Clif Prowse, decidono di partire in un viaggio intorno al mondo. Viaggeranno in sei continenti diversi per un totale di trenta paesi. Jason Lee, il fratello di Derek, cerca di convincerlo ad abbandonare tutto perché, in un altro paese, sarebbe più difficile andare in ospedale per curare la sua malformazione artero-venosa. Il ragazzo non ascolta le parole del fratello, visto che vuole vivere pienamente la vita che gli rimane.

Trailer


Upload on Youtube

Info File

Video
ID : 1
Format : AVC
Format/Info : Advanced Video Codec
Format profile : [email protected]
Format settings, CABAC : Yes
Format settings, ReFrames : 4 frames
Codec ID : V_MPEG4/ISO/AVC
Duration : 1h 25mn
Bit rate : 1 974 Kbps
Width : 1 920 pixels
Height : 1 040 pixels
Display aspect ratio : 1.85:1
Frame rate mode : Constant
Frame rate : 23.976 (24000/1001) fps
Original frame rate : 23.976 (23976/1000) fps
Color space : YUV
Chroma subsampling : 4:2:0
Bit depth : 8 bits
Scan type : Progressive
Bits/(Pixel*Frame) : 0.041
Stream size : 1.18 GiB (87%)
Writing library : x264 core 142 r2409 d6b4e63
Encoding settings : cabac=1 / ref=4 / deblock=1:-1:-1 / analyse=0x3:0x133 / me=umh / subme=9 / psy=1 / psy_rd=1.00:0.15 / mixed_ref=1 / me_range=24 / chroma_me=1 / trellis=2 / 8x8dct=1 / cqm=0 / deadzone=21,11 / fast_pskip=0 / chroma_qp_offset=-3 / threads=12 / lookahead_threads=1 / sliced_threads=0 / nr=0 / decimate=1 / interlaced=0 / bluray_compat=0 / constrained_intra=0 / bframes=3 / b_pyramid=2 / b_adapt=2 / b_bias=0 / direct=3 / weightb=1 / open_gop=0 / weightp=2 / keyint=250 / keyint_min=23 / scenecut=40 / intra_refresh=0 / rc_lookahead=60 / rc=2pass / mbtree=1 / bitrate=1974 / ratetol=1.0 / qcomp=0.60 / qpmin=0 / qpmax=69 / qpstep=4 / cplxblur=20.0 / qblur=0.5 / vbv_maxrate=31250 / vbv_bufsize=31250 / nal_hrd=none / filler=0 / ip_ratio=1.40 / aq=1:1.00
Language : English
Default : Yes
Forced : No
Color range : Limited
Color primaries : BT.709
Matrix coefficients : BT.709

Audio #1
ID : 2
Format : AC-3
Format/Info : Audio Coding 3
Mode extension : CM (complete main)
Format settings, Endianness : Big
Codec ID : A_AC3
Duration : 1h 25mn
Bit rate mode : Constant
Bit rate : 192 Kbps
Channel(s) : 2 channels
Channel positions : Front: L R
Sampling rate : 44.1 KHz
Frame rate : 28.711 fps (1536 spf)
Compression mode : Lossy
Stream size : 118 MiB (8%)
Language : Italian
Default : Yes
Forced : No

Immagini

Videoblog di un vampiro (2013), [BDmux 1080p – H264 – Ita Ac3 Eng Aac]
Videoblog di un vampiro (2013), [BDmux 1080p – H264 – Ita Ac3 Eng Aac]
Videoblog di un vampiro (2013), [BDmux 1080p – H264 – Ita Ac3 Eng Aac]
Videoblog di un vampiro (2013), [BDmux 1080p – H264 – Ita Ac3 Eng Aac]
Videoblog di un vampiro (2013), [BDmux 1080p – H264 – Ita Ac3 Eng Aac]

Trackers

http://tracker.istole.it:80/
http://tracker.publicbt.com:80/
http://tracker.tntvillage.scambioetico.org:2710/scrape
http://open.demonii.com:1337/scrape
http://tracker.openbittorrent.com/scrape
http://tracker.coppersurfer.tk:6969/scrape